Request Anything By Commenting On Request Zone And Dont Forget to Skip The Add For Download

March 2013 ~ Bollywood

Saturday, 30 March 2013


Optimized-images (4)


Download Himmatwala Movie For Free: Himmatwala is an upcoming Action and Comedy movie of 2013. This movie is a remake of same name movie. First Himmatwala was released in 1980’s. The releasing date of this picture is 29 March 2013 in India. Sajid Khan is a movie director and Farhad is its script writer. Main celebrities are Tamanna Bhatia, Paresh Rawal and Ajay Devgan. Himmatwala is a production of Vashu Bhagnani. The story of this movie is moves around the character Ajay Devgan. He is a son of wrong and poor mother. He comes back from big city into his small village to takes a revenge of his father’s death. Before death his father was school teacher.We will see Ajay fighting with a Tiger in this movie, which is considered very deadly scene in Bollywood History.Download Himmatwala 2013 Full Movie with good quality prints. Download other latest free movies without any sign up or without create any premium account.

DOWNLOAD From Server 1
here if the links are not working.


Report Dead Link

Tuesday, 26 March 2013

I, Me aur Main 2013 Free Movie

Posted by Unknown On 18:57 No comments


Optimized-i-me-aur-main-movie-posters


Download I, Me aur Main Movie: I, Me aur Main is an upcoming Romantic and drama movie of Bollywood. It is directed by new director Kapil Sharma. It is featuring Prachi Desai, Chitrangda Singh and John Abraham. It will release on 1 March 2013. John is playing a role of music producer and he is a good looking. He lives in a sheltered place. He is lovable for his mother. He has an elder sister named Shivani. She protects him every time. Anushka is his girlfriend and most of the time he stays in her house. Then another comes into his life names Gauri and both are falls in strong relationship. Download I, Me aur Main 2013 Free Movie with good downloading speed. I, Me aur Main Download Free Full Movie without any payment.

DOWNLOAD From Server 1
here if the links are not working.


Report Dead Link

Saturday, 23 March 2013

Rangrezz 2013 Hindi movie

Posted by Unknown On 00:47 No comments

Optimized-images (23)


Download Rangrezz Movie: Rangrezz is an upcoming movie of Bollywood. It is a drama based movie directed by Priyadarshan. Jackky Bhagnani, Rajpal Yadav and Priya Anand are the main star casts in this film. This is a remake of Tamil famous movie Naadodigal. This movie has been also remade in three different languages Telugu, Kannada and Malayalam. Priyadarshan is coming in this movie after the gap of 15 years. In this film he is working with Santosh Sivan. It is a production of Vashu Bhagnani. Download Rangrezz 2013 Hindi movie for free with very good downloading speed. Now you can download movies for free with very good downloading speed.

DOWNLOAD From Server 1
here if the links are not working


Report Dead Link

Optimized-Aatma-Movie-Poster-Designs


Download Aatma Movie: Maya is a young mother. She has a beautiful little daughter and her husband is recently died. Her husband abused her after the death. Her husband wants to take his daughter with him. She is trying to save her daughter from her abused father. Aatma is an upcoming Horror movie of Bollywood. The releasing date of this picture is 22 March 2013. It is directed by Suparn Verma. The script is written by Sudarshana Dwivedi. Main celebrities are Bipasha Basu, Jaideep Ahlawat and Nawazuddin Siddiqui. Download Aatma 2013 Hindi Movie for free. For more new movies visits our website and download movies for free without pay any charges.

DOWNLOAD From Server 1
here if the links are not working.


Report Dead Link

Thursday, 21 March 2013

3G 2013 DVDRip

Posted by Unknown On 10:30 No comments
(Don't Direct Click On Link)
Just right click on the link and copy link Location or address and paste in to Download manger or Address bar of browser. Otherwise you get Error.  

Monday, 18 March 2013

Mere Dad Ki Maruti Hindi Movie

Posted by Unknown On 11:29 No comments

Optimized-370924-mere-dad-ki-maruti


Download Mere Dad Ki Maruti Movie: It is latest Bollywood Hindi Movie directed by Ashima Chibber. Saqib Saleem, Ram Kapoor and Prabal Panjabi are playing the lead role in this Hindi movie.Actress in the movie is Rhea Chakraborty who has won reality show on MTV and has also hosted many serials on MTV. Mere Dad Ki Maruti is about a Huge Punjabi wedding that is happening in Chandigarh during which a boy takes the car of his father to take his girlfriend on a drive in order to impress her.To things go terrible wrong when he mistakenly loses the car that puts him in big trouble. Mere Dad Ki Maruti Hindi movie download free of cost in great quality is available below.
DOWNLOAD From Server 1
here if the links are not working.


Report Dead Link

Saturday, 16 March 2013

Talaash [2012] DVDRip 720p

Posted by Unknown On 00:42 No comments

Saturday, 2 March 2013


John Abraham?s I, Me Aur Mein Movie First Look 0
Directed by Kapil Sharma
Produced by Goldie Behl, Shrishti Behl Arya
Starring:
John Abraham
Prachi Desai
Chitrangada Singh
Music by Falak Shabir
Sachin-Jigar
Gourav Dasgupta
Raghav Sachar
Release date(s) : 1 March 2013
Country: India
Language: Hindi
Format : MPEG-PS
File size : 703 MiB
Duration : 1h 33mn
Overall bit rate mode : Variable
Overall bit rate : 1 047 Kbps
Video
ID : 224 (0xE0)
Format : MPEG Video
Format version : Version 2
Format profile : Main@Main
Format settings, BVOP : Yes
Format settings, Matrix : Default
Format settings, GOP : M=3, N=13
Duration : 1h 33mn
Bit rate mode : Variable
Bit rate : 898 Kbps
Maximum bit rate : 9 672 Kbps
Width : 720 pixels
Height : 576 pixels
Display aspect ratio : 4:3
Frame rate : 25.000 fps
Standard : PAL
Color space : YUV
Chroma subsampling : 4:2:0
Bit depth : 8 bits
Scan type : Progressive
Compression mode : Lossy
Bits/(Pixel*Frame) : 0.087
Stream size : 603 MiB (86%)
Audio
ID : 192 (0xC0)
Format : MPEG Audio
Format version : Version 1
Format profile : Layer 2
Duration : 1h 33mn
Bit rate mode : Constant
Bit rate : 128 Kbps
Channel(s) : 2 channels
Sampling rate : 48.0 KHz
Compression mode : Lossy
Stream size : 85.9 MiB (12%)
1
3 4 5 6
2

Friday, 1 March 2013


Kai po che! (2013) movie
Plot: Govind dream of starting a business. To accommodate his friends Ishaan (the central character) and Omi's passion, cricket, they open a cricket goods and training shop. However, each has a different motive: Govind's goal is to make money; Ishaan desires to nurture Ali, a gifted batsman; Omi just wants to be with his friends. The events that transpire against the backdrop of all that occurred in the city during that time, change the lives of each of the friends in very different ways.

Genre: Drama
IMDB rating: 8.6/10
Directed by: Abhishek Kapoor
Starring:  Amit Sadh, Sushant Singh Rajput, Raj Kumar Yadav, Amit shah

Release Name: Kai po che! (2013) DVDSCR AUDIO CLEANED MEDIAFIRE DOWNLOAD LINK
Size: 695 MB
Links: iMDB
Screenshots :-
Kai po che dvd

DOWNLOAD RESUMABLE LINKS