Request Anything By Commenting On Request Zone And Dont Forget to Skip The Add For Download

May 2013 ~ Bollywood

Saturday, 11 May 2013

Go Goa Gone (2013)HD CAM NTSC

Posted by Rohit seth On 19:16 No comments


1
0
Format : MPEG-PS
File size : 708 MiB
Duration : 1h 38mn
Overall bit rate mode : Variable
Overall bit rate : 1 009 Kbps
Video
ID : 224 (0xE0)
Format : MPEG Video
Format version : Version 2
Format profile : Main@Main
Format settings, BVOP : Yes
Format settings, Matrix : Default
Format settings, GOP : M=3, N=13
Duration : 1h 38mn
Bit rate mode : Variable
Bit rate : 861 Kbps
Maximum bit rate : 9 672 Kbps
Width : 352 pixels
Height : 288 pixels
Display aspect ratio : 4:3
Frame rate : 25.000 fps
Standard : PAL
Color space : YUV
Chroma subsampling : 4:2:0
Bit depth : 8 bits
Scan type : Progressive
Compression mode : Lossy
Bits/(Pixel*Frame) : 0.340
Stream size : 604 MiB (85%)
Audio
ID : 192 (0xC0)
Format : MPEG Audio
Format version : Version 1
Format profile : Layer 2
Duration : 1h 38mn
Bit rate mode : Constant
Bit rate : 128 Kbps
Channel(s) : 2 channels
Sampling rate : 48.0 KHz
Compression mode : Lossy
Stream size : 89.8 MiB (13%)
1
1 2 3
2

HUGEFILES –Go Goa Gone (2013)HD C…

Saturday, 4 May 2013



Shootout at Wadala movie
Plot:Surve aka John a bright student with a promising future who turns against the system after being wrongly framed in a murder case. getting life term imprisonment for a crime that was not committed by him. Manya, along with his fellow prisoner Sheikh Munir (Tusshar), escapes from jail and forms his own gang and challenges the diggis of underworld Dilawar Imtiyaz Haskar (Sonu Sood) and his brother Zubair Imtiyaz Haskar (Manoj Bajpayee).  With the increasing power, Manya becomes a threat to the police ACP Ishaque Bagwan (Anil Kapoor). Now both Dilawar and Zubair wants to kill Manya; ACP Ishaque Bagwan shares the same intention.

Genre: Action | Crime
IMDB rating: 7.6/10
Directed by: Sanjay Gupta
Starring:  John Abraham, Manoj Bajpayee, Sophiya Chaudhary, Kangana Ranaut,Jackie Shroff, Sonu Sood

Release Name:Shootout at Wadala (2013) HD Full Movie MEDIAFIRE DOWNLOAD LINK
Size: 697 MB
Links: iMDB
Screenshots :-
Shootout at Wadala HD




Download Resumable